Search found 52 matches

Author Message

BOSS

Post Yesterday 17:57

[Quote]

«Не стоит его недооценивать»
Информация о фильме
Название: Никто
Оригинальное название: Nobody
Год выхода: 2021
Жанр: Боевик, триллер, криминал
Режиссер: Илья Найшуллер
В ролях: Боб Оденкёрк, Алексей Серебряков, Конни Нильсен, Кристофер Ллойд, Майкл Айронсайд, Колин Сэлмон, RZA, Билли Маклеллан, Арая Менгеша, Гейдж Манро
О фильме:
Непримечательный и незаметный человек живёт обычной жизнью, пока однажды, спасая женщину от нападения бандитов, не отправляет одного из хулиганов в больницу. Лишь позже он узнаёт, что это был брат влиятельного гангстера, который теперь жаждет мести.


Страна: США
Студия: 87North, Dentsu, Eighty Two Films, Odenkirk Provissiero Entertainment, Perfect World (Beijing) Pictures Co.
Продолжительность: 01:31:40
Перевод: Профессиональный (многоголосый, закадровый) | HDRezka Studio
Файл
Качество: WEB-DLRip
Формат: AVI
Кодек: XviD
Видео: 720x304 (2,35:1), 23.976 fps, XviD ~ 1833 Kbps avg, 0.349 bit/pixel
Аудио: AC3, 48 kHz, 6 ch, ~448.00 kbps avg | русский | HDRezka Studio | с цензурой
Субтитры: Русские (форсированные, полные) отдельно

Скриншоты

BOSS

Post Yesterday 17:54

[Quote]

Информация о фильме
Название: Заступник
Оригинальное название: The Marksman
Год выхода: 2021
Жанр: боевик, криминал, триллер
Режиссер: Роберт Лоренц
В ролях: Лиам Нисон, Кэтрин Уинник, Тереса Руис, Хуан Пабло Раба, Грэйсон Берри, Лелия Симингтон, Люче Рэйнс, Дилан Кенин, Чейз Маллинз, Томми Лафит, Шон А. Розалес, Хосе Л. Васкес, Антонио Лейба, Алекс Найт, Дэвид ДеЛао
О фильме: Джим был лучшим профессиональным снайпером, но теперь он оставил войны позади и ведет уединенную мирную жизнь. Покою приходит конец, когда он решает вступиться за беззащитного мальчика, случайно ставшего свидетелем преступлений могущественного наркокартеля. С этого момента Джиму предстоит в одиночку противостоять киллерам, используя все свои боевые навыки

Выпущено: США / Cutting Edge Group, Raven Capital Management, Sculptor Media, Stonehouse Motion Pictures, Voltage Pictures
Продолжительность: 01:47:29
Озвучивание: Дублированное | iTunes
Файл
Формат: AVI
Качество: WEB-DLRip
Видео: 688x288 (2.39:1), 24.000 fps, XviD build 73 ~838 kbps avg, 0.18 bit/pixel
Аудио: 48 kHz, MPEG Layer 3, 2 ch, ~128.00 kbps avg
Субтитры: Russian (Full, Forced) - отдельно

Скриншоты

admin

Post 18-Apr-2021 22:08

[Quote]

«Justice comes down to him»
Информация о фильме
Название: Заступник
Оригинальное название: The Marksman
Год выхода: 2021
Жанр: Боевик, криминал, триллер
Режиссер: Роберт Лоренц
В ролях: Лиам Нисон, Кэтрин Уинник, Хуан Пабло Раба, Тереса Руис, Джейкоб Перес, Гарри Мальдонадо, Альфредо Куирос, Шон А. Розалес, Хосе Л. Васкес, Антонио Лейба
О фильме:
Джим был лучшим профессиональным снайпером, но теперь он оставил войны позади и ведет уединенную мирную жизнь. Покою приходит конец, когда он решает вступиться за беззащитного мальчика, случайно ставшего свидетелем преступлений могущественного наркокартеля. С этого момента Джиму предстоит в одиночку противостоять киллерам, используя все свои боевые навыки.


Страна: США
Студия: Cutting Edge Group, Raven Capital Management, Sculptor Media, Stonehouse Motion Pictures, UTA Independent Film Group, Voltage Pictures, Zero Gravity Management
Продолжительность: 01:47:29
Перевод: Профессиональный (многоголосый, закадровый) | HDRezka Studio
Файл
Качество: WEB-DLRip
Формат: AVI
Кодек: XviD
Видео: 720x304 (2,35:1), 24 fps, XviD ~ 1489 Kbps avg, 0.283 bit/pixel
Аудио: AC3, 48 kHz, 6 ch, ~448.00 kbps avg | русский | HDRezka Studio |
Субтитры: Русские (форсированные, полные) отдельно

Скриншоты

admin

Post 18-Apr-2021 01:24

[Quote]

Информация о фильме
Название: Хребет дьявола
Оригинальное название: Shookum Hills / The Devil Below
Год выхода: 2021
Жанр: Ужасы
Режиссер: Брэдли Паркер
В ролях: Алисия Санс, Адан Канто, Уилл Пэттон, Зак Эйвери, Чиназа Уче, Джонатан Садовский, Джесси ЛаТуретт, Марк МакКалло, Альфа Триветт, Том Проктер
О фильме: Группа молодых геологов нанимает отчаянную девушку-проводника, чтобы она доставила их в загадочный шахтёрский городок, в котором много лет назад произошёл пожар и который теперь не обозначен на картах. Заплутав, компания спрашивает дорогу у местных, но те советуют убираться подобру-поздорову и даже начинают преследовать незваных гостей. Несмотря на это, геологи все же находят скрытую в лесу дорогу и заброшенный городок, окруженный забором под напряжением, а внутри периметра — странные дыры в земле.

Выпущено: США / 1inMM Productions
Продолжительность: 01:28:57
Озвучивание: Дублированное | iTunes
Файл
Формат: AVI
Качество: WEB-DLRip
Видео: XviD, 1958 Kb/s, 720x384
Аудио: Russian: 48 kHz, AC3 Dolby Digital, 3/2 (L, C, R, l, r) + LFE ch, ~384 Kbps
Субтитры: Нет

Скриншоты

admin

Post 11-Apr-2021 23:31

[Quote]

ОДИН И ТОТ ЖЕ
One and the Same

Страна: США
Студия: Shadow Clone Films, Leisure Films
Жанр: Детектив, мистика
Год выпуска: 2021
Продолжительность: 01:51:31
Перевод: Любительский (многоголосый закадровый) | MUZOBOZ
Субтитры: нет
Оригинальная аудиодорожка: английский
Режиссер: Фелипе Сиснерос / Felipe Cisneros
В ролях:
Гленн Пламмер, Габриэль Уолш, Майк Фергюсон, Оливия Дэй, Джеки Даллас, Акорье Уайт, Игнасио Матыниа, Мишель Энн Эйнерт, Макена Тейлор, Джош Гилмер
Описание:
Молодую девушку, Лолу Роуз, приглашают в секретное учреждение, которое проводит эксперименты за пределами пространства и времени. Узнав, что в прошлой жизни она была подростком по имени Робин, которого убили, она решает отомстить убийце.-| IMDb | КиноПоиск | Скачать сэмпл|-Качество видео: WEB-DLRip
Формат видео: AVI
Видео: 720x368 (1,957), 23.976 fps, XviD build 67 ~1696 kbps avg, 0.267 bit/pixel
Аудио 1 RUS: 48 kHz, AC3 Dolby Digital, 2/0 (L,R) ch, ~192 kbps
Отдельно, в папке раздачи:
Аудио 2 ENG: 48 kHz, AC3 Dolby Digital, 3/2 (L,C,R,l,r) + LFE ch, ~384 kbps

MediaInfo

Общее
Полное имя : D:\Odin.i.tot.zhe.2021.WEB-DLRip\Odin.i.tot.zhe.2021.WEB-DLRip.avi
Формат : AVI
Формат/Информация : Audio Video Interleave
Размер файла : 1,46 Гбайт
Продолжительность : 1 ч. 50 м.
Общий поток : 1 897 Кбит/сек
Название фильма : Один и тот же / One and the Same (2021) WEB-DLRip
Режиссёр : Фелипе Сиснерос / Felipe Cisneros
Жанр : Детектив, мистика
Программа кодирования : VirtualDubMod 1.5.10.2 (build 2542/release)
Формат оригинала/Имя : Художественный фильм
Авторское право : США, Shadow Clone Films, Leisure Films
Примечание : Rip by vitolinform
Видео
Идентификатор : 0
Формат : MPEG-4 Visual
Профиль формата : Advanced Simple@L5
Настройки формата : BVOP1 / Custom Matrix
Параметр BVOP формата : 1
Параметр QPel формата : Нет
Параметр GMC формата : Без точки перехода
Параметр матрицы формата : Выборочная
Идентификатор кодека : XVID
Идентификатор кодека/Подсказка : XviD
Продолжительность : 1 ч. 50 м.
Битрейт : 1 696 Кбит/сек
Ширина : 720 пикселей
Высота : 368 пикселей
Соотношение сторон : 1,957
Частота кадров : 23,976 (24000/1001) кадра/сек
Цветовое пространство : YUV
Субдискретизация насыщенности : 4:2:0
Битовая глубина : 8 бит
Тип развёртки : Прогрессивная
Метод сжатия : С потерями
Бит/(Пиксели*Кадры) : 0.267
Размер потока : 1,31 Гбайт (89%)
Библиотека кодирования : XviD 67
Аудио
Идентификатор : 1
Формат : AC-3
Формат/Информация : Audio Coding 3
Коммерческое название : Dolby Digital
Идентификатор кодека : 2000
Продолжительность : 1 ч. 50 м.
Вид битрейта : Постоянный
Битрейт : 192 Кбит/сек
Каналы : 2 канала
Channel layout : L R
Частота : 48,0 КГц
Частота кадров : 31,250 кадров/сек (1536 SPF)
Метод сжатия : С потерями
Размер потока : 152 Мбайт (10%)
Выравнивание : Разделение по промежуткам
Продолжительность промежутка : 42 мс. (1,00 видеокадр)
Время предзагрузки промежутка : 500 мс.
Заголовок : Russian (MVO, MUZOBOZ)
Service kind : Complete Main
===========================================================================================
Общее
Полное имя : D:\Odin.i.tot.zhe.2021.WEB-DLRip\Odin.i.tot.zhe.2021.WEB-DLRip_eng.ac3
Формат : AC-3
Формат/Информация : Audio Coding 3
Коммерческое название : Dolby Digital
Размер файла : 304 Мбайт
Продолжительность : 1 ч. 50 м.
Режим общего битрейта : Постоянный
Общий поток : 384 Кбит/сек
Аудио
Формат : AC-3
Формат/Информация : Audio Coding 3
Коммерческое название : Dolby Digital
Продолжительность : 1 ч. 50 м.
Вид битрейта : Постоянный
Битрейт : 384 Кбит/сек
Каналы : 6 каналов
Channel layout : L R C LFE Ls Rs
Частота : 48,0 КГц
Частота кадров : 31,250 кадров/сек (1536 SPF)
Метод сжатия : С потерями
Размер потока : 304 Мбайт (100%)
Service kind : Complete Main

Скриншот c названием фильма

Скриншоты

admin

Post 11-Apr-2021 23:23

[Quote]

ИГРА в КУПИДОНА
Playing Cupid

Страна: США, Канада
Студия: Hallmark Channel, Timeless Pictures, Basset Hound Distribution
Жанр: Мелодрама, комедия
Год выпуска: 2021
Продолжительность: 01:24:08
Перевод: Любительский (многоголосый закадровый) | Синема УС
Субтитры: нет
Оригинальная аудиодорожка: английский
Режиссер: Дэвид Уивер / David Weaver
В ролях:
Лора Вандервурт, Николас Гонсалес, Миа Кваранта де ла Роса, ЛаТоня Уильямс, Ария ДеМарис, Ава Фрика, Нолан Хапп, Джордж Дабурас, Эверик Голдинг
Описание:
Одинокая учительница средней школы Остина встречается с разведенным отцом своей ученицы после того, как его дочь - одна из её учениц, выбирает в качестве школьного проекта необычный бизнес.-| Скачать Сэмпл | IMDb | КиноПоиск |-Качество видео: WEB-DLRip
Формат видео: AVI
Видео: 720x400 (16:9), 23.976 fps, XviD build 67 ~1838 kbps avg, 0.266 bit/pixel
Аудио 1 RUS: 48 kHz, AC3 Dolby Digital, 2/0 (L,R) ch, ~192 kbps
Аудио 2 ENG: 48 kHz, AC3 Dolby Digital, 3/2 (L,C,R,l,r) + LFE ch, ~448 kbps

MediaInfo

Общее
Полное имя : D:\Igra.v.Kupidona.2021.WEB-DLRip.avi
Формат : AVI
Формат/Информация : Audio Video Interleave
Размер файла : 1,46 Гбайт
Продолжительность : 1 ч. 24 м.
Общий поток : 2 492 Кбит/сек
Программа кодирования : VirtualDubMod 1.5.10.2 (build 2542/release)
Библиотека кодирования : VirtualDubMod build 2542/release
Видео
Идентификатор : 0
Формат : MPEG-4 Visual
Профиль формата : Advanced Simple@L5
Настройки формата : BVOP1 / Custom Matrix
Параметр BVOP формата : 1
Параметр QPel формата : Нет
Параметр GMC формата : Без точки перехода
Параметр матрицы формата : Выборочная
Идентификатор кодека : XVID
Идентификатор кодека/Подсказка : XviD
Продолжительность : 1 ч. 24 м.
Битрейт : 1 838 Кбит/сек
Ширина : 720 пикселей
Высота : 400 пикселей
Соотношение сторон : 16:9
Частота кадров : 23,976 (24000/1001) кадра/сек
Частота кадров в оригинале : 23,976 (23976/1000) кадра/сек
Цветовое пространство : YUV
Субдискретизация насыщенности : 4:2:0
Битовая глубина : 8 бит
Тип развёртки : Прогрессивная
Метод сжатия : С потерями
Бит/(Пиксели*Кадры) : 0.266
Размер потока : 1,08 Гбайт (74%)
Библиотека кодирования : XviD 67
Аудио #1
Идентификатор : 1
Формат : AC-3
Формат/Информация : Audio Coding 3
Коммерческое название : Dolby Digital
Идентификатор кодека : 2000
Продолжительность : 1 ч. 24 м.
Вид битрейта : Постоянный
Битрейт : 192 Кбит/сек
Каналы : 2 канала
Channel layout : L R
Частота : 48,0 КГц
Частота кадров : 31,250 кадров/сек (1536 SPF)
Метод сжатия : С потерями
Размер потока : 116 Мбайт (8%)
Выравнивание : Разделение по промежуткам
Продолжительность промежутка : 42 мс. (1,00 видеокадр)
Время предзагрузки промежутка : 500 мс.
Заголовок : Russian (MVO, Синема УС)
Service kind : Complete Main
Аудио #2
Идентификатор : 2
Формат : AC-3
Формат/Информация : Audio Coding 3
Коммерческое название : Dolby Digital
Идентификатор кодека : 2000
Продолжительность : 1 ч. 24 м.
Вид битрейта : Постоянный
Битрейт : 448 Кбит/сек
Каналы : 6 каналов
Channel layout : L R C LFE Ls Rs
Частота : 48,0 КГц
Частота кадров : 31,250 кадров/сек (1536 SPF)
Метод сжатия : С потерями
Размер потока : 270 Мбайт (18%)
Выравнивание : Разделение по промежуткам
Продолжительность промежутка : 42 мс. (1,00 видеокадр)
Время предзагрузки промежутка : 500 мс.
Заголовок : English
Service kind : Complete Main

Скриншот c названием фильма

Скриншоты

admin

Post 11-Apr-2021 23:16

[Quote]

Летний лагерь / A Week Away
Страна: США
Жанр: мюзикл, драма, семейный
Год выпуска: 2021
Продолжительность: 01:37:51-Перевод: Профессиональный (дублированный) | NetFlix
Субтитры: русские (forced)
Оригинальная аудиодорожка: нет-Режиссер:
Роман Уайт / Roman White-В ролях:
Бэйли Мэдисон, Дэвид Кокнер, Кевин Дж. Куинн, Шерри Шеперд, Эд Аматрудо, Мари Касуя, Бруклин Виттмер, Йен Такер, Кэт Коннер Стерлинг, Кристофер Л. Планкетт-Описание: Трудный подросток Уилл Хокинс должен провести каникулы в христианском летнем лагере вместо тюрьмы для несовершеннолетних. Сначала Уилл чувствует себя чужим среди местной молодежи, но неожиданно для него самого именно здесь герой находит лучшего друга, любимую девушку и обретает новый смысл своей жизни в вере и музыке.- -Качество видео: WEB-DLRip
Формат видео: AVI
Видео: 720x304 (2.37:1), 23.976 fps, XviD build 73 ~1674 kbps avg, 0.32 bit/pixel
Аудио: 48 kHz, AC3 Dolby Digital, 3/2 (L,C,R,l,r) + LFE ch, ~448 kbps-Сэмпл-

MediaInfo

Формат                                   : AVI
Формат/Информация                        : Audio Video Interleave
Размер файла                             : 1,46 Гбайт
Продолжительность                        : 1 ч. 37 м.
Общий поток                              : 2 132 Кбит/сек
Название фильма                          : Летний лагерь_2021_WEB-DLRip
Программа кодирования                    : VirtualDubMod 1.5.10.3 | www.virtualdub-fr.org || (build 2550/release)
Авторское право                          : порошков
Видео
Идентификатор                            : 0
Формат                                   : MPEG-4 Visual
Профиль формата                          : Advanced Simple@L5
Настройки формата                        : BVOP1 / Custom Matrix
Параметр BVOP формата                    : 1
Параметр QPel формата                    : Нет
Параметр GMC формата                     : Без точки перехода
Параметр матрицы формата                 : Выборочная
Идентификатор кодека                     : XVID
Идентификатор кодека/Подсказка           : XviD
Продолжительность                        : 1 ч. 37 м.
Битрейт                                  : 1 675 Кбит/сек
Ширина                                   : 720 пикселей
Высота                                   : 304 пикселя
Соотношение сторон                       : 2,35:1
Частота кадров                           : 23,976 (24000/1001) кадра/сек
Цветовое пространство                    : YUV
Субдискретизация насыщенности            : 4:2:0
Битовая глубина                          : 8 бит
Тип развёртки                            : Прогрессивная
Метод сжатия                             : С потерями
Бит/(Пиксели*Кадры)                      : 0.319
Размер потока                            : 1,14 Гбайт (79%)
Библиотека кодирования                   : XviD 73
Аудио
Идентификатор                            : 1
Формат                                   : AC-3
Формат/Информация                        : Audio Coding 3
Коммерческое название                    : Dolby Digital
Идентификатор кодека                     : 2000
Продолжительность                        : 1 ч. 37 м.
Вид битрейта                             : Постоянный
Битрейт                                  : 448 Кбит/сек
Каналы                                   : 6 каналов
Channel layout                           : L R C LFE Ls Rs
Частота                                  : 48,0 КГц
Частота кадров                           : 31,250 кадров/сек (1536 SPF)
Метод сжатия                             : С потерями
Размер потока                            : 314 Мбайт (21%)
Выравнивание                             : Разделение по промежуткам
Продолжительность промежутка             : 42  мс. (1,00 видеокадр)
Время предзагрузки промежутка            : 500  мс.
Service kind                             : Complete Main

Скриншоты


admin

Post 11-Apr-2021 23:09

[Quote]

Он тебя не отпустит / Every Breath You Take
Страна: США
Жанр: триллер
Год выпуска: 2021
Продолжительность: 01:45:40-Перевод: Профессиональный (дублированный) | iTunes
Субтитры: нет
Оригинальная аудиодорожка: нет-Режиссер:
Вон Стайн / Vaughn Stein-В ролях: Кейси Аффлек, Мишель Монахэн, Сэм Клафлин, Вероника Феррес, Индиа Айсли, Эмили Элин Линд, Хиро Канагава, Винсент Гэйл, Лилли Круг, Дэниэл Бэйкон-Описание: Филип — успешный психиатр, пробующий экспериментальные методы лечения. Когда одна из его пациенток совершает самоубийство, в его жизни появляется Джеймс — загадочный брат погибшей. И жена, и дочь Филипа очарованы таинственным незнакомцем, желающим узнать обстоятельства гибели своей сестры. Однако Филип начинает догадываться, что истинные мотивы Джеймса куда зловещее… Теперь Филипу необходимо спасти жену и дочь, попавших под чары соблазнительного психопата.- -Качество видео: WEB-DLRip
Формат видео: AVI
Видео: 720x304 (2.37:1), 23.976 fps, XviD build 73 ~1580 kbps avg, 0.30 bit/pixel
Аудио: 48 kHz, AC3 Dolby Digital, 3/2 (L,C,R,l,r) + LFE ch, ~384 kbps-Сэмпл-

MediaInfo

Формат                                   : AVI
Формат/Информация                        : Audio Video Interleave
Размер файла                             : 1,46 Гбайт
Продолжительность                        : 1 ч. 45 м.
Общий поток                              : 1 974 Кбит/сек
Название фильма                          : Он тебя не отпустит_2021_WEB-DLRip
Программа кодирования                    : VirtualDubMod 1.5.10.3 | www.virtualdub-fr.org || (build 2550/release)
Авторское право                          : порошков
Видео
Идентификатор                            : 0
Формат                                   : MPEG-4 Visual
Профиль формата                          : Advanced Simple@L5
Настройки формата                        : BVOP1 / Custom Matrix
Параметр BVOP формата                    : 1
Параметр QPel формата                    : Нет
Параметр GMC формата                     : Без точки перехода
Параметр матрицы формата                 : Выборочная
Идентификатор кодека                     : XVID
Идентификатор кодека/Подсказка           : XviD
Продолжительность                        : 1 ч. 45 м.
Битрейт                                  : 1 581 Кбит/сек
Ширина                                   : 720 пикселей
Высота                                   : 304 пикселя
Соотношение сторон                       : 2,35:1
Частота кадров                           : 23,976 (24000/1001) кадра/сек
Цветовое пространство                    : YUV
Субдискретизация насыщенности            : 4:2:0
Битовая глубина                          : 8 бит
Тип развёртки                            : Прогрессивная
Метод сжатия                             : С потерями
Бит/(Пиксели*Кадры)                      : 0.301
Размер потока                            : 1,17 Гбайт (80%)
Библиотека кодирования                   : XviD 73
Аудио
Идентификатор                            : 1
Формат                                   : AC-3
Формат/Информация                        : Audio Coding 3
Коммерческое название                    : Dolby Digital
Идентификатор кодека                     : 2000
Продолжительность                        : 1 ч. 45 м.
Вид битрейта                             : Постоянный
Битрейт                                  : 384 Кбит/сек
Каналы                                   : 6 каналов
Channel layout                           : L R C LFE Ls Rs
Частота                                  : 48,0 КГц
Частота кадров                           : 31,250 кадров/сек (1536 SPF)
Метод сжатия                             : С потерями
Размер потока                            : 290 Мбайт (19%)
Выравнивание                             : Разделение по промежуткам
Продолжительность промежутка             : 42  мс. (1,00 видеокадр)
Время предзагрузки промежутка            : 500  мс.
Service kind                             : Complete Main

Скриншоты


admin

Post 10-Apr-2021 12:55

[Quote]

«Никому не скрыться от шума»
Информация о фильме
Название: Поступь хаоса
Оригинальное название: Chaos Walking
Год выхода: 2021
Жанр: Фантастика, приключения
Режиссер: Даг Лайман
В ролях: Том Холланд, Дэйзи Ридли, Демиан Бичир, Дэвид Ойелоуо, Курт Саттер, Синтия Эриво, Бетани Энн Линд, Мадс Миккельсен, Ник Джонас, Рэй Маккиннон
О фильме:
2257 год. Родина Тодда Хьюитта — колонизированная планета Новый Мир, где мысли мужчин имеют визуально-звуковое воплощение и называются шумом. Парень живёт в небольшой деревне, населённой исключительно мужчинами, и ещё не научился скрывать свои мысли от окружающих. Однажды над планетой терпит крушение корабль-разведчик из второй волны колонистов, в результате чего Тодд впервые в сознательной жизни видит девушку. Местный мэр решет использовать её в своих коварных планах, но девушка сбегает, и теперь без помощи Тодда ей не обойтись.


Страна: США, Канада, Гонконг
Студия: Lionsgate, Quadrant Pictures
Продолжительность: 01:48:54
Перевод: Профессиональный (многоголосый, закадровый) | HDRezka Studio
Файл
Качество: WEB-DLRip
Формат: AVI
Кодек: XviD
Видео: 720x304 (2,35:1), 23.976 fps, XviD ~ 1463 Kbps avg, 0.279 bit/pixel
Аудио: AC3, 48 kHz, 6 ch, ~448.00 kbps avg | русский | HDRezka Studio |
Субтитры: Русские (форсированные) отдельно

Скриншоты

admin

Post 02-Apr-2021 11:53

[Quote]

Информация о фильме
Название: Годзилла против Конга
Оригинальное название: Godzilla vs. Kong
Год выхода: 2021
Жанр: боевик, фантастика
Режиссер: Адам Вингард
В ролях: Александр Скарсгард, Милли Бобби Браун, Ребекка Холл, Брайан Тайри Генри, Сюн Огури, Эйса Гонсалес, Джулиан Деннисон, Лэнс Реддик, Кайл Чандлер, Демиан Бичир
О фильме:
Конг и группа ученых отправляются в опасное путешествие в поисках родного дома гиганта. Среди них девочка Джия, единственная, кто умеет общаться с Конгом. Неожиданно они сталкиваются с разъяренным Годзиллой, разрушающим все на своем пути. Битва двух титанов, спровоцированная неведомыми силами — лишь малая часть тайны, спрятанной в недрах Земли.

Страна: США, Австралия, Канада, Индия
Продолжительность: 01:53:09
Перевод: Любительский одноголосый | feofanio
Файл
Кодек: XviD
Качество: WEBRip
Видео: MPEG4, XviD, 720x304, 23.976 fps, 1 458 kb/s
Аудио 1: AC3, 48.0 kHz, 2 ch, 192 kb/s | RUS
Аудио 2: AC3, 48.0 kHz, 2 ch, 192 kb/s | ENG
Субтитры: Русские (перевод feofanio), английские | Внешние
Рекламы нет | Сэмпл

Скриншоты

admin

Post 24-Mar-2021 06:36

[Quote]

Информация о фильме
Название: Двери
Оригинальное название: Doors
Год выхода: 2021
Жанр: Фантастика
Режиссер: Джефф Дэсом, Саман Кешаварц, Дуган О’Нил
В ролях: Джош Пек, Лина Эско, Уилсон Бетел, Кип Мэлоун, Рори Энн Даль, Джулианна Коллинз, Джордан Рок, Дэвид Хэмпхилл, Дариус Левант, Арик Флойд
О фильме:
Миллионы загадочных внеземных дверей внезапно появляются по всему миру. Правительство, ученые и даже обычные граждане пытаются определить причину их прибытия и понять цель этих сверхъестественных аномалий. Причудливые происшествия заставляют людей задуматься не только о собственном существовании, но так же об измененной реальности, с которой они сталкиваются по ту сторону дверей.


Страна: США
Студия: Bloody Disgusting, BoulderLight Pictures
Продолжительность: 01:24:06
Перевод: Авторский (одноголосый, закадровый) | Андрей Дольский
*** Присутствует ненормативная лексика!
*** Удалена звуковая реклама спонсора озвучки!
*** За звуковую дорожку спасибо ресурсу KinoPub!

Файл
Качество: WEB-DLRip
Формат: AVI
Кодек: XviD
Видео: 720x304 (2,35:1), 23.976 fps, XviD ~ 2093 Kbps avg, 0.399 bit/pixel
Аудио: AC3, 48 kHz, 6 ch, ~384.00 kbps avg | русский | Дольский |
Субтитры: Отсутствуют

Скриншоты

KSA

Post 22-Mar-2021 16:07

[Quote]

Цикада 3301: Квест для хакера / Dark Web: Cicada 3301
Страна: США
Жанр: боевик, триллер, комедия
Год выпуска: 2021
Продолжительность: 01:45:22-Перевод: Профессиональный (дублированный) | iTunes
Субтитры: русские, английские
Оригинальная аудиодорожка: английский-Режиссер: Алан Ричсон / Alan Ritchson-В ролях: Алан Ричсон, Кристен Холден-Рид, Конор Лесли, Джесс Салгейру, Джек Кеси, Рон Фанчес, Ава Блэкуэлл, Хеннеки Талбот, Андреас Апергис, Бенжамин Сазерленд-Описание: Этот квест «взорвал» даркнет в 2012 году. Пройти его могут лишь избранные — те, кто разгадают загадки, разбросанные по всему миру. Цель теста — найти людей с поистине высоким интеллектом. Авторы — анонимы под ником Цикада 3301 — могут быть кем угодно: от кибер-гиков до представителей спецслужб. Что ждет игроков в финале? Гениальный хакер Коннор и его друзья пускаются по цифровому следу Цикады в поисках ответов, но агенты АНБ намерены опередить их.- -Качество видео: BDRip | Dark.Web.Cicada.3301.2021.1080p.BluRay.REMUX.AVC.DTS-HD.MA.5.1-FGT
Формат видео: AVI
Видео: 704x352 (2.00:1), 23.976 fps, XviD build 73 ~2117 kbps avg, 0.36 bit/pixel
Аудио 1: 48 kHz, AC3 Dolby Digital, 3/2 (L,C,R,l,r) + LFE ch, ~384 kbps | RUS
Аудио 2: 48 kHz, AC3 Dolby Digital, 3/2 (L,C,R,l,r) + LFE ch, ~448 kbps | ENG-Сэмпл-

MediaInfo

Код:
Формат : AVI
Формат/Информация : Audio Video Interleave
Профиль формата : OpenDML
Размер файла : 2,18 Гбайт
Продолжительность : 1 ч. 45 м.
Общий поток : 2 956 Кбит/сек
Название фильма : Цикада 3301_ Квест для хакера_2021_BDRip
Программа кодирования : VirtualDubMod 1.5.10.3 | www.virtualdub-fr.org || (build 2550/release)
Авторское право : порошков
Видео
Идентификатор : 0
Формат : MPEG-4 Visual
Профиль формата : Advanced Simple@L5
Настройки формата : BVOP1 / Custom Matrix
Параметр BVOP формата : 1
Параметр QPel формата : Нет
Параметр GMC формата : Без точки перехода
Параметр матрицы формата : Выборочная
Идентификатор кодека : XVID
Идентификатор кодека/Подсказка : XviD
Продолжительность : 1 ч. 45 м.
Битрейт : 2 106 Кбит/сек
Ширина : 704 пикселя
Высота : 352 пикселя
Соотношение сторон : 2,000
Частота кадров : 23,976 (24000/1001) кадра/сек
Цветовое пространство : YUV
Субдискретизация насыщенности : 4:2:0
Битовая глубина : 8 бит
Тип развёртки : Прогрессивная
Метод сжатия : С потерями
Бит/(Пиксели*Кадры) : 0.354
Размер потока : 1,55 Гбайт (71%)
Библиотека кодирования : XviD 73
Аудио #1
Идентификатор : 1
Формат : AC-3
Формат/Информация : Audio Coding 3
Коммерческое название : Dolby Digital
Идентификатор кодека : 2000
Продолжительность : 1 ч. 45 м.
Вид битрейта : Постоянный
Битрейт : 384 Кбит/сек
Каналы : 6 каналов
Channel layout : L R C LFE Ls Rs
Частота : 48,0 КГц
Частота кадров : 31,250 кадров/сек (1536 SPF)
Метод сжатия : С потерями
Размер потока : 289 Мбайт (13%)
Выравнивание : Разделение по промежуткам
Продолжительность промежутка : 42 мс. (1,00 видеокадр)
Время предзагрузки промежутка : 500 мс.
Заголовок : rus
Service kind : Complete Main
Аудио #2
Идентификатор : 2
Формат : AC-3
Формат/Информация : Audio Coding 3
Коммерческое название : Dolby Digital
Идентификатор кодека : 2000
Продолжительность : 1 ч. 45 м.
Вид битрейта : Постоянный
Битрейт : 448 Кбит/сек
Каналы : 6 каналов
Channel layout : L R C LFE Ls Rs
Частота : 48,0 КГц
Частота кадров : 31,250 кадров/сек (1536 SPF)
Метод сжатия : С потерями
Размер потока : 338 Мбайт (15%)
Выравнивание : Разделение по промежуткам
Продолжительность промежутка : 42 мс. (1,00 видеокадр)
Время предзагрузки промежутка : 500 мс.
Заголовок : eng
Service kind : Complete Main

Скриншоты


admin

Post 19-Mar-2021 05:59

[Quote]

Информация о фильме
Название: Смертельные иллюзии
Оригинальное название: Deadly Illusions
Год выхода: 2021
Жанр: Триллер, драма
Режиссер: Анна Элизабет Джеймс
В ролях: Дермот Малруни, Кристин Дэвис, Шанола Хэмптон, Грир Грэммер, Лора Каннингэм, Грэйсон Берри, Эллен Хэмпфри, Александра Фаббри, Оливия Тейлор, Мари Уэйдженман
О фильме:
Популярная писательница-романистка, страдающая профессиональным кризисом, нанимает невинную молодую женщину, чтобы она присматривала за её детьми-близнецами. По мере того как главная героиня опасно предается своему новому бестселлеру, грань между жизнью, которую она пишет, и той, которой она живет, стирается.


Страна: США
Студия: Kiss and Tale Productions
Продолжительность: 01:54:49
Перевод: Профессиональный (полное дублирование) | Пифагор по заказу Netflix
Файл
Качество: WEB-DLRip
Формат: AVI
Кодек: XviD
Видео: 720x304 (2.35:1), 23.976 fps, XviD ~ 1428 Kbps avg, 0.272 bit/pixel
Аудио: AC3, 48 kHz, 6 ch, ~384.00 kbps avg | русский | Пифагор
Субтитры: Русские (Forced, Full) отдельно

Скриншоты

admin

Post 19-Mar-2021 05:17

[Quote]

Лига справедливости Зака Снайдера / Zack Snyder's Justice League
Год выпуска: 2021
Страна: США / Atlas Entertainment, DC Entertainment, DC Films
Жанр: Фантастика, фэнтези, боевик, приключения
Продолжительность: 04:02:03
Перевод: Профессиональный (полное дублирование) [Мосфильм-Мастер]
Субтитры: Русские форсированные (стилизованные, на надписи и прочее) - вшитые; Русские, английские (форс., полные) - отдельно-Режиссер: Зак Снайдер-В ролях: Бен Аффлек, Генри Кавилл, Галь Гадот, Эзра Миллер, Джейсон Момоа, Рэй Фишер, Киаран Хайндс, Эми Адамс, Джереми Айронс, Дайан Лейн, Конни Нильсен, Дж. К. Симмонс, Джаред Лето, Джо Манганьелло, Джо Мортон, Эмбер Хёрд, Гарри Ленникс, Джесси Айзенберг, Кирси Клемонс, Уиллем Дефо, Чжэн Кай, Карен Брайсон, Джулиан Льюис Джонс, Питер Гиннесс, Рэй Портер-Описание:
Вдохновившись самопожертвованием Супермена, Брюс Уэйн вновь обретает веру в человечество. Он заручается поддержкой новой союзницы Дианы Принс, чтобы сразиться с ещё более могущественным противником. Бэтмен и Чудо-женщина набирают команду сверхлюдей для борьбы с пробудившейся угрозой.
-Рейтинг:
-Качество: WEB-DLRip | исх. ZackSnydersJusticeLeagueWEBDL1080p.mkv |
Формат: AVI
Видео кодек: XviD
Аудио кодек: MP3
Видео: 704x528 (1.33:1), 23.976 fps, XviD build 69 ~1151 kbps avg, 0.13 bit/pixel
Аудио: 48 kHz, MPEG Layer 3, 2 ch, ~128.00 kbps avg
-

Скриншоты


admin

Post 19-Mar-2021 05:11

[Quote]

Информация о фильме
Название: Лига справедливости Зака Снайдера
Оригинальное название: Zack Snyder's Justice League
Год выхода: 2021
Жанр: Фантастика, фэнтези, боевик, приключения
Режиссер: Зак Снайдер
В ролях: Бен Аффлек, Генри Кавилл, Галь Гадот, Эзра Миллер, Джейсон Момоа, Рэй Фишер, Киаран Хайндс, Эми Адамс, Джереми Айронс, Дайан Лейн, Конни Нильсен, Дж. К. Симмонс, Джаред Лето, Джо Манганьелло, Джо Мортон, Эмбер Хёрд, Гарри Ленникс, Джесси Айзенберг, Кирси Клемонс, Уиллем Дефо, Чжэн Кай, Карен Брайсон, Джулиан Льюис Джонс, Питер Гиннесс, Рэй Портер
О фильме:
Вдохновившись самопожертвованием Супермена, Брюс Уэйн вновь обретает веру в человечество. Он заручается поддержкой новой союзницы Дианы Принс, чтобы сразиться с ещё более могущественным противником. Бэтмен и Чудо-женщина набирают команду сверхлюдей для борьбы с пробудившейся угрозой.

Страна: США
Студия: Atlas Entertainment, DC Entertainment, DC Films
Продолжительность: 04:02:03
Перевод: Дублированный | «Мосфильм-Мастер»
Автор релиза: dalemake
Примечание: Без рекламы
Файл
Формат: AVI
Качество: WEB-DLRip [AMZN]
Видео: XviD, ~ 1479 Кбит/с, 640x480
Звук: AC3, 2 ch, 224 Кбит/с
Субтитры: Русские (отдельно)
Семпл

Скриншоты

 

Current time is: 21-Apr 02:51

All times are UTC + 3